<?xml version="1.0" standalone="no"?>
<!DOCTYPE svg PUBLIC "-//W3C//DTD SVG 1.1//EN" "http://www.w3.org/Graphics/SVG/1.1/DTD/svg11.dtd" >
<svg xmlns="http://www.w3.org/2000/svg">
<metadata>Generated by IcoMoon</metadata>
<defs>
<font id="KendoUIGlyphs" horiz-adv-x="1024">
<font-face units-per-em="1024" ascent="960" descent="-64" />
<missing-glyph horiz-adv-x="1024" />
<glyph unicode="&#x20;" horiz-adv-x="512" d="" />
<glyph unicode="&#xe600;" glyph-name="arrow-n" d="M512 640l-221.696-384h443.392l-221.696 384z" />
<glyph unicode="&#xe601;" glyph-name="arrow-e" d="M704 448l-384 221.696v-443.392l384 221.696z" />
<glyph unicode="&#xe602;" glyph-name="arrow-s" d="M512 256l-221.696 384h443.392l-221.696-384z" />
<glyph unicode="&#xe603;" glyph-name="arrow-w" d="M320 448l384 221.696v-443.392l-384 221.696z" />
<glyph unicode="&#xe604;" glyph-name="seek-n" d="M512 640l221.696-384h-443.392l221.696 384zM768 704v-64h-512v64h512z" />
<glyph unicode="&#xe605;" glyph-name="seek-e" d="M704 448l-384-221.696v443.392l384-221.696zM768 704v-512h-64v512h64z" />
<glyph unicode="&#xe606;" glyph-name="seek-s" d="M512 256l-221.696 384h443.392l-221.696-384zM768 192h-512v64h512v-64z" />
<glyph unicode="&#xe607;" glyph-name="seek-w" d="M320 448l384 221.696v-443.392l-384 221.696zM256 704h64v-512h-64v512z" />
<glyph unicode="&#xe608;" glyph-name="sarrow-n" d="M512 576l-192-192h384l-192 192z" />
<glyph unicode="&#xe609;" glyph-name="sarrow-e" d="M448 640v-384l192 192z" />
<glyph unicode="&#xe60a;" glyph-name="sarrow-s" d="M704 512h-384l192-192z" />
<glyph unicode="&#xe60b;" glyph-name="sarrow-w" d="M384 448l192-192v384l-192-192z" />
<glyph unicode="&#xe60c;" glyph-name="expand-n" d="M512 576l256-256h-512z" />
<glyph unicode="&#xe60d;" glyph-name="expand-e" d="M640 448l-256-256v512l256-256z" />
<glyph unicode="&#xe60e;" glyph-name="expand-s" d="M256 576h512l-256-256z" />
<glyph unicode="&#xe60f;" glyph-name="expand-w" d="M640 704v-512l-256 256z" />
<glyph unicode="&#xe610;" glyph-name="collapse-ne" d="M704 640v-384l-384 384z" />
<glyph unicode="&#xe611;" glyph-name="collapse-se" d="M704 256h-384l384 384z" />
<glyph unicode="&#xe612;" glyph-name="collapse-sw" d="M320 256v384l384-384z" />
<glyph unicode="&#xe613;" glyph-name="collapse-nw" d="M320 640h384l-384-384z" />
<glyph unicode="&#xe614;" glyph-name="resize-ne" d="M768 704h-512l512-512z" />
<glyph unicode="&#xe615;" glyph-name="resize-se" d="M768 192h-512l512 512z" />
<glyph unicode="&#xe616;" glyph-name="resize-sw" d="M256 192h512l-512 512z" />
<glyph unicode="&#xe617;" glyph-name="resize-nw" d="M256 704h512l-512-512z" />
<glyph unicode="&#xe618;" glyph-name="arrowhead-n" d="M832 320l-320 320-320-320h128l192 192 192-192z" />
<glyph unicode="&#xe619;" glyph-name="arrowhead-e" d="M320 128l320 320-320 320v-128l192-192-192-192z" />
<glyph unicode="&#xe61a;" glyph-name="arrowhead-s" d="M704 576l-192-192-192 192h-128l320-320 320 320z" />
<glyph unicode="&#xe61b;" glyph-name="arrowhead-w" d="M704 256l-192 192 192 192v128l-320-320 320-320z" />
<glyph unicode="&#xe61c;" glyph-name="pencil" d="M779.456 895.872c-0.192 0.192-0.576 0.192-0.704 0l-89.856-89.856c-0.192-0.192-0.192-0.512 0-0.704l180.352-180.352c0.256-0.192 0.512-0.192 0.768 0l89.856 89.792c0.192 0.192 0.192 0.576 0 0.768l-180.416 180.352zM643.648 760.064c-0.192 0.192-0.512 0.192-0.768 0l-457.984-457.984c-0.192-0.192-0.32-0.384-0.384-0.384 0 0-0.064-0.256-0.192-0.512l-120.32-300.864c-0.064-0.256 0-0.384 0.256-0.32l300.8 120.384c0.256 0.128 0.64 0.384 0.832 0.576l458.048 457.984c0.192 0.192 0.192 0.512 0 0.704l-180.288 180.416zM256.256 192.256c-0.192-0.192-0.512-0.192-0.704 0l-44.544 44.544c-0.192 0.192-0.192 0.576 0 0.768l431.872 431.936c0.256 0.192 0.576 0.192 0.768 0l44.544-44.544c0.192-0.192 0.192-0.576 0-0.768l-431.936-431.936z" />
<glyph unicode="&#xe61d;" glyph-name="x" d="M768 638.016l-190.016-190.016 190.016-190.016v-65.984h-62.016l-192 192-192-192h-64l-1.984 1.984v60.032l193.984 193.984-193.984 193.984v60.032l1.984 1.984h64l192-192 192 192h62.016v-65.984z" />
<glyph unicode="&#xe61e;" glyph-name="checkmark" d="M774.016 726.016l72-104-392-514.304-289.984 220.288 27.2 119.808 249.088-192.448 333.696 470.656z" />
<glyph unicode="&#xe61f;" glyph-name="deny" d="M512 832c-212.032 0-384-171.968-384-384s171.968-384 384-384 384 171.968 384 384-171.968 384-384 384zM832 448c0-76.8-28.16-146.304-73.28-201.472l-448.192 448.192c55.168 45.12 124.672 73.28 201.472 73.28 176.768 0 320-143.232 320-320zM192 448c0 76.8 28.16 146.368 73.28 201.472l448.192-448.192c-55.168-45.12-124.672-73.28-201.472-73.28-176.704 0-320 143.232-320 320z" />
<glyph unicode="&#xe620;" glyph-name="trash" d="M384 640h64v-448h-64v448zM512 640h64v-448h-64v448zM640 128h-320v512h-64v-576h448v576h-64zM128 768h704v-64h-704v64zM384 896h192v-64h-192v64z" />
<glyph unicode="&#xe621;" glyph-name="plus" d="M832 512h-256v256h-128v-256h-256v-128h256v-256h128v256h256z" />
<glyph unicode="&#xe622;" glyph-name="splus" d="M704 512h-128v128h-128v-128h-128v-128h128v-128h128v128h128z" />
<glyph unicode="&#xe623;" glyph-name="minus" d="M192 512h640v-128h-640v128z" />
<glyph unicode="&#xe624;" glyph-name="sminus" d="M320 512h384v-128h-384v128z" />
<glyph unicode="&#xe625;" glyph-name="filter" d="M192 752v-76.032l256-256v-435.968l128 176v259.968l256 256v76.032h-640z" />
<glyph unicode="&#xe626;" glyph-name="filter-clear" d="M844.032 379.968l-41.984-41.984-576 576 41.984 41.984 203.968-203.968h360v-76.032l-142.016-142.016 154.048-153.984zM601.984 446.016l-25.984-26.048v-260.032l-128-175.936v435.968l-256 256v76.032h104l305.984-305.984z" />
<glyph unicode="&#xe627;" glyph-name="refresh" d="M763.776 578.816c42.112-54.080 67.264-121.984 67.264-195.84-0.064-176.128-142.848-318.976-319.040-318.976s-318.976 142.848-318.976 318.976c0 154.688 110.080 283.52 256.128 312.704v105.6l251.968-145.472-251.968-145.536v98.496c-98.88-27.456-171.456-118.080-171.456-225.728 0-129.344 104.896-234.304 234.24-234.304 129.408 0 234.304 104.96 234.304 234.304 0 58.432-21.504 111.808-56.896 152.896l74.432 42.88z" />
<glyph unicode="&#xe628;" glyph-name="refresh-clear" d="M766.208 256.128c40.384 53.12 64.832 118.912 64.832 190.848 0 73.856-25.152 141.76-67.264 195.84l-74.368-42.88c35.392-41.088 56.896-94.464 56.896-152.896 0-48.448-15.872-92.544-41.344-129.728l-323.392 323.456c20.48 14.016 43.008 25.152 67.584 32v-98.496l251.968 145.472-251.968 145.536v-105.6c-47.552-9.472-90.624-30.4-127.808-58.688l-194.176 194.176-43.584-43.584 831.936-832.064 43.648 43.648-192.96 192.96zM511.936 212.736c-129.344 0-234.24 104.96-234.24 234.304 0 13.568 1.216 26.88 3.392 39.808l-68.928 68.992c-12.352-33.92-19.136-70.592-19.136-108.8 0-176.192 142.784-319.040 318.976-319.040 38.080 0 74.112 7.808 107.968 20.032l-68.736 68.736c-12.864-2.176-25.856-4.032-39.296-4.032z" />
<glyph unicode="&#xe629;" glyph-name="restore" d="M128 640v-576h576v576h-576zM576 192h-320v320h320v-320zM896 832v-576h-128v448h-448v128h576z" />
<glyph unicode="&#xe62a;" glyph-name="maximize" d="M192 768v-640h640v640h-640zM704 256h-384v384h384v-384z" />
<glyph unicode="&#xe62b;" glyph-name="minimize" d="M192 256h640v-128h-640v128z" />
<glyph unicode="&#xe62c;" glyph-name="pin" d="M640 448v320h-320v-320h-64v-64h192v-256h64v256h192v64h-64zM384 448v256h128v-256h-128z" />
<glyph unicode="&#xe62d;" glyph-name="unpin" d="M768 640h-256v64h-64v-192h-256v-64h256v-192h64v64h320v320h-64zM768 448h-256v128h256v-128z" />
<glyph unicode="&#xe62e;" glyph-name="calendar" d="M768 704v128h-128v-128h-256v128h-128v-128h-128v-640h768v640h-128zM832 128h-640v448h640v-448zM512 448h192v-192h-192v192z" />
<glyph unicode="&#xe62f;" glyph-name="clock" d="M512 832c-212.032 0-384-171.968-384-384s171.968-384 384-384 384 171.968 384 384-171.968 384-384 384zM512 128c-176.704 0-320 143.232-320 320s143.296 320 320 320c176.768 0 320-143.232 320-320s-143.232-320-320-320zM512 640h-64v-256h256v64h-192z" />
<glyph unicode="&#xe630;" glyph-name="search" d="M384 896c-176.768 0-320-143.296-320-320 0-176.768 143.232-320 320-320 176.704 0 320 143.232 320 320 0 176.704-143.296 320-320 320zM640 576c0-141.376-114.624-256-256-256s-256 114.624-256 256 114.624 256 256 256 256-114.624 256-256zM960 128c0-70.656-57.344-128-128-128l-192 192c0 70.656 57.344 128 128 128l192-192z" />
<glyph unicode="&#xe631;" glyph-name="zoom-in" d="M384 896c-176.768 0-320-143.296-320-320 0-176.768 143.232-320 320-320 176.704 0 320 143.232 320 320 0 176.704-143.296 320-320 320zM384 320c-141.376 0-256 114.624-256 256s114.624 256 256 256 256-114.624 256-256-114.624-256-256-256zM960 128c0-70.656-57.344-128-128-128l-192 192c0 70.656 57.344 128 128 128l192-192zM576 512h-128v-128h-128v128h-128v128h128v128h128v-128h128v-128z" />
<glyph unicode="&#xe632;" glyph-name="zoom-out" d="M384 896c-176.768 0-320-143.296-320-320 0-176.768 143.232-320 320-320 176.704 0 320 143.232 320 320 0 176.704-143.296 320-320 320zM384 320c-141.376 0-256 114.624-256 256s114.624 256 256 256 256-114.624 256-256-114.624-256-256-256zM960 128c0-70.656-57.344-128-128-128l-192 192c0 70.656 57.344 128 128 128l192-192zM576 512h-384v128h384v-128z" />
<glyph unicode="&#xe633;" glyph-name="print" d="M832 448v192l-256 256h-384v-448h-192v-384h1024v384h-192zM256 832h320v-192h192v-192h-512v384zM576 384v-64h-128v64h128zM832 128h-640v128h640v-128z" />
<glyph unicode="&#xe634;" glyph-name="folder-add" d="M576 768h-384v-384h-64v448h448v-64zM320 192h-128v128h-64v-128h-128v-64h128v-128h64v128h128v64zM256 704v-64h704v-448h-576v-64h640v576h-768z" />
<glyph unicode="&#xe635;" glyph-name="folder-up" d="M576 768h-384v-256h-64v320h448v-64zM256 704v-64h704v-448h-576v-64h640v576h-768zM320 256l-160 192-160-192h128v-256h64v256h128z" />
<glyph unicode="&#xe636;" glyph-name="insert-image" d="M960 832h-832v-448h64v384h768v-576h-576v-64h640v704zM192 320h-64v-128h-128v-64h128v-128h64v128h128v64h-128zM576 384l-192 192-128-192v-128h640l-192 256zM896 640c0-35.346-28.654-64-64-64s-64 28.654-64 64c0 35.346 28.654 64 64 64s64-28.654 64-64z" />
<glyph unicode="&#xe637;" glyph-name="image" d="M64 832v-704h896v704h-896zM896 192h-768v576h768v-576zM832 256l-192 256-128-128-192 192-128-192v-128zM832 640c0-35.346-28.654-64-64-64s-64 28.654-64 64c0 35.346 28.654 64 64 64s64-28.654 64-64z" />
<glyph unicode="&#xe638;" glyph-name="insert-file" d="M512-64c-141.184 0-256 114.88-256 256v576c0 105.856 86.144 192 192 192 105.728 0 192-86.144 192-192v-448c0-70.592-57.472-128-128-128-70.656 0-128 57.408-128 128v384h64v-384c0-35.264 28.736-64 64-64s64 28.736 64 64v448c0 70.592-57.472 128-128 128s-128-57.408-128-128v-576c0-105.856 86.144-192 192-192s192 86.144 192 192v512h64v-512c0-141.12-114.88-256-256-256z" />
<glyph unicode="&#xe639;" glyph-name="file" d="M576 896h-384v-832h640v576l-256 256zM256 128v704h320v-192h192v-512h-512z" />
<glyph unicode="&#xe63a;" glyph-name="files" d="M192 896h320v-64h128l-128 128h-384v-832h192v64h-128zM768 768h-384v-832h640v576l-256 256zM448 0v704h320v-192h192v-512h-512z" />
<glyph unicode="&#xe63b;" glyph-name="pdf" d="M640 896h-384v-384h-128v-320h128v-128h640v576l-256 256zM254.528 326.976v-65.984h-36.48v182.016h72.512c20.928 0 37.376-5.312 49.344-16s17.984-24.704 17.984-42.112-6.016-31.488-17.984-42.048-28.48-15.872-49.408-15.872h-35.968zM320 128v64h448v320h-448v320h320v-192h192v-512h-512zM384.768 260.992v182.016h62.528c22.272 0 40.576-7.104 54.976-21.312s21.632-32.448 21.632-54.656v-30.144c0-22.336-7.168-40.576-21.632-54.656s-32.768-21.184-54.976-21.184h-62.528zM665.28 364.736v-28.096h-76.288v-75.648h-36.48v182.016h125.504v-28.096h-89.024v-50.112h76.288zM445.376 414.848h-24.128v-125.76h24.128c13.056 0 23.296 4.416 30.72 13.248s11.136 20.288 11.136 34.56v30.4c0 14.080-3.712 25.472-11.136 34.304s-17.664 13.248-30.72 13.248zM313.6 363.456c5.248 5.568 7.872 12.608 7.872 21.184 0 8.768-2.624 16-7.808 21.696s-12.928 8.512-23.168 8.512h-35.968v-59.776h36.032c10.112 0.064 17.792 2.816 23.040 8.384z" />
<glyph unicode="&#xe63c;" glyph-name="xls" d="M640 896h-384v-384h-128v-320h128v-128h640v576l-256 256zM224.768 443.008h42.24l33.6-64.512 34.112 64.512h42.496l-54.016-90.24 57.152-91.776h-44.096l-35.136 65.664-35.136-65.6h-42.624l55.36 91.776-53.952 90.176zM320 128v64h448v320h-448v320h320v-192h192v-512h-512zM516.864 289.152v-28.096h-117.504v181.952h36.48v-153.856h81.024zM628.672 325.376c-4.928 4.224-13.632 8.256-26.048 11.968-21.696 6.272-38.080 13.632-49.152 22.272s-16.64 20.352-16.64 35.264c0 14.912 6.4 27.072 19.072 36.544s28.928 14.208 48.704 14.208c20.032 0 36.288-5.312 48.896-15.936s18.688-23.744 18.24-39.296l-0.256-0.768h-35.392c0 8.384-2.816 15.232-8.448 20.416s-13.504 7.808-23.68 7.808c-9.728 0-17.344-2.176-22.656-6.528s-8-9.856-8-16.64c0-6.144 2.88-11.264 8.576-15.168s15.552-8.192 29.568-12.544c20.032-5.632 35.328-12.992 45.632-22.144s15.488-21.248 15.488-36.096c0-15.616-6.144-27.904-18.432-36.864s-28.48-13.504-48.704-13.504c-19.84 0-37.12 5.12-51.904 15.296s-21.952 24.576-21.504 42.944l0.256 0.768h35.52c0-10.88 3.328-18.752 9.92-23.808s15.872-7.552 27.712-7.552c9.92 0 17.472 1.984 22.72 6.144s7.872 9.472 7.872 16.384c0.064 6.976-2.432 12.608-7.36 16.832z" />
<glyph unicode="&#xe63d;" glyph-name="xlsa" d="M640 896h-384v-256h-128v-448h128v-128h640v576l-256 256zM233.28 256h-40l-1.28 1.28v37.504l121.28 121.216-121.28 121.28v37.44l1.28 1.28h40l120-120 120 120h38.72v-41.28l-118.72-118.72 118.72-118.72v-41.28h-38.72l-120 120-120-120zM320 128v64h256v448h-256v192h320v-192h192v-512h-512z" />
<glyph unicode="&#xe63e;" glyph-name="lock" d="M704 512v128c0 106.048-86.016 192-192 192-106.048 0-192-85.952-192-192v-128h-64v-384h512v384h-64zM384 640c0 70.656 57.344 128 128 128s128-57.344 128-128v-128h-256v128z" />
<glyph unicode="&#xe63f;" glyph-name="unlock" d="M512 512v128c0 106.048-85.952 192-192 192s-192-85.952-192-192v-192h64v192c0 70.656 57.344 128 128 128s128-57.344 128-128v-128h-64v-384h512v384h-384z" />
<glyph unicode="&#xe640;" glyph-name="rows" d="M896 256v-192h-768v192h768zM128 576v-192h768v192h-768zM128 896v-192h768v192h-768z" />
<glyph unicode="&#xe641;" glyph-name="columns" d="M256 64h-192v768h192v-768zM576 832h-192v-768h192v768zM896 832h-192v-768h192v768z" />
<glyph unicode="&#xe642;" glyph-name="hamburger" d="M960 640h-896v128h896v-128zM960 512h-896v-128h896v128zM960 256h-896v-128h896v128z" />
<glyph unicode="&#xe643;" glyph-name="vbars" d="M448 832h128v-768h-128v768z" />
<glyph unicode="&#xe644;" glyph-name="hbars" d="M128 512h768v-128h-768v128z" />
<glyph unicode="&#xe645;" glyph-name="move" d="M320 832h128v-768h-128v768zM512 832h128v-768h-128v768z" />
<glyph unicode="&#xe646;" glyph-name="group" d="M448 512h-320v320h320v-320zM832 832h-320v-320h320v320zM448 448h-320v-320h320v320zM832 448h-320v-320h320v320z" />
<glyph unicode="&#xe647;" glyph-name="ungroup" d="M256 704h192v-192h-192v192zM576 832h320v-320h-320v320zM128 384h320v-320h-320v320zM576 384h256v-256h-256v256z" />
<glyph unicode="&#xe648;" glyph-name="dimension" d="M896 224l-192 160v-128h-384v384h128l-160 192-160-192h128v-384h-128v-64h128v-128h64v128h384v-128z" />
<glyph unicode="&#xe649;" glyph-name="connector" d="M736 832c-41.728 0-76.864-26.816-90.112-64h-197.888v-512h-133.888c-13.248 37.184-48.384 64-90.112 64-52.992 0-96-43.008-96-96s43.008-96 96-96c41.728 0 76.864 26.816 90.112 64h197.888v512h133.888c13.248-37.184 48.384-64 90.112-64 52.992 0 96 42.944 96 96s-43.008 96-96 96z" />
<glyph unicode="&#xe64a;" glyph-name="kpi" d="M512 832l192-320h-384l192 320zM512 64l192 320h-384l192-320z" />
<glyph unicode="&#xe64b;" glyph-name="undo" d="M570.24 576c-104.576 0-199.232-41.92-268.352-109.888l-109.888 109.888v-256h256l-100.224 100.224c57.472 56.448 135.488 91.776 222.464 91.776 89.792 0 170.24-37.76 228.352-97.344l44.8 44.8c-69.504 71.296-165.632 116.544-273.152 116.544z" />
<glyph unicode="&#xe64c;" glyph-name="redo" d="M453.76 576c104.576 0 199.232-41.92 268.352-109.888l109.888 109.888v-256h-256l100.16 100.224c-57.408 56.448-135.424 91.776-222.4 91.776-89.792 0-170.24-37.76-228.416-97.344l-44.8 44.8c69.568 71.296 165.696 116.544 273.216 116.544z" />
<glyph unicode="&#xe64d;" glyph-name="undo-large" d="M512.448 662.976v129.792l-448.448-258.88 448.448-258.944v134.336c206.016-0.384 379.392-139.712 431.488-329.28h16.064v134.592c0 247.36-200.32 447.936-447.552 448.384z" />
<glyph unicode="&#xe64e;" glyph-name="redo-large" d="M64 214.592v-134.592h16.064c52.096 189.568 225.472 328.896 431.488 329.28v-134.336l448.448 258.944-448.448 258.88v-129.728c-247.232-0.512-447.552-201.088-447.552-448.448z" />
<glyph unicode="&#xe64f;" glyph-name="rotate-ccw" d="M448 832.064v-768h-384l384 768zM512 320.064v-256h512l-512 256zM832 576.064h-128v96l-128-128 128-128v96h128v-128h64v192h-64z" />
<glyph unicode="&#xe650;" glyph-name="rotate-cw" d="M960.064 64h-384v768l384-768zM0 64h512v256l-512-256zM448 544l-128 128v-96h-192v-192h64v128h128v-96l128 128z" />
<glyph unicode="&#xe651;" glyph-name="cut" d="M800 320c-21.888 0-42.688-4.416-61.696-12.352l-160.256 160.256 258.112 304.32 35.584 121.536-359.744-359.808-359.744 359.744 35.584-121.536 258.112-304.256-160.32-160.256c-18.944 7.936-39.808 12.352-61.632 12.352-88.384 0-160-71.616-160-160s71.616-160 160-160 160 71.616 160 160c0 22.592-4.8 44.032-13.248 63.488l141.248 166.528 141.248-166.528c-8.448-19.52-13.248-40.896-13.248-63.488 0-88.384 71.616-160 160-160s160 71.616 160 160-71.616 160-160 160zM224 64c-52.992 0-96 43.008-96 96s43.008 96 96 96 96-43.008 96-96-43.008-96-96-96zM800 64c-52.992 0-96 43.008-96 96s43.008 96 96 96 96-43.008 96-96-43.008-96-96-96z" />
<glyph unicode="&#xe652;" glyph-name="copy" d="M192 832h192v-64h128l-128 128h-256v-704h192v64h-128zM640 704h-256v-704h512v448l-256 256zM448 64v576h192v-192h192v-384h-384z" />
<glyph unicode="&#xe653;" glyph-name="paste" d="M640 896h-256v64h256v-64zM832 832v-576l-256-256h-384v832h640zM768 768h-64v-64h-384v64h-64v-704h320v192h192v512z" />
<glyph unicode="&#xe654;" glyph-name="bold" d="M256 128v700.992h236.864c82.56 0 146.88-16.064 193.088-48.128 46.272-32.064 69.312-80.064 69.312-143.936 0-32.448-8.576-61.376-25.728-86.912s-42.112-44.736-74.88-57.536c42.112-8.96 73.6-28.224 94.656-57.792 20.928-29.568 31.488-63.68 31.488-102.592 0-67.136-22.208-117.888-66.432-152.384-44.288-34.432-107.072-51.712-188.224-51.712h-270.144zM396.544 535.296h101.12c37.568 0 66.432 7.68 86.656 23.104 20.16 15.36 30.336 37.824 30.336 67.392 0 32.448-10.176 56.32-30.656 71.744-20.224 15.424-50.688 23.168-91.136 23.168h-96.32v-185.408zM396.544 438.080v-201.728h129.536c37.184 0 65.6 8.064 85.184 24.256s29.376 40.128 29.376 71.808c0 34.24-8.32 60.48-25.088 78.592-16.64 17.984-42.88 27.072-78.848 27.072h-140.16z" />
<glyph unicode="&#xe655;" glyph-name="italic" d="M376.32 748.8l5.76 19.2h343.744l-6.848-19.2c-31.040 0-54.912-6.976-71.424-20.8-16.448-13.824-30.848-42.688-43.392-86.656l-128.768-450.624c-9.344-31.872-13.952-53.12-13.952-63.808 0-12.48 4.8-22.272 14.464-29.12 12.608-9.024 36.096-13.888 70.656-14.592l-5.12-19.2h-349.44l5.696 19.2c35.008 0 60.608 6.72 76.864 20.032s30.912 42.56 44.096 87.488l129.728 450.688c7.936 27.712 12.032 48.512 12.032 62.72 0 12.8-4.8 22.848-14.592 30.144-9.6 7.232-32.832 12.16-69.504 14.528z" />
<glyph unicode="&#xe656;" glyph-name="underline" d="M348.416 768v-347.072c0-154.176 68.864-219.904 161.344-219.904 101.76 0 168.512 67.84 168.512 219.904v347.072h90.496v-340.928c0-212.672-112.064-299.072-262.144-299.072-141.824 0-248.64 80.192-248.64 296v344h90.432zM192 64h640v-64h-640v64z" />
<glyph unicode="&#xe657;" glyph-name="strike-through" d="M310.848 325.312c0-25.152 1.216-49.6 4.16-69.312h-47.168l-4.16 36.416h-1.856c-16.128-22.656-47.168-43.008-88.448-43.008-58.56 0-88.448 41.216-88.448 83.072 0 69.952 62.144 108.16 173.952 107.584v6.016c0 23.296-6.592 66.944-65.728 66.368-27.52 0-55.616-7.808-75.904-21.504l-11.968 35.2c23.936 14.912 59.136 25.088 95.616 25.088 88.448 0 109.952-60.352 109.952-117.76v-108.16zM260.032 403.648c-57.344 1.216-122.56-8.96-122.56-65.216 0-34.624 22.72-50.176 49.024-50.176 38.272 0 62.72 23.936 71.104 48.448 1.792 5.952 2.432 11.968 2.432 16.704v50.24zM395.712 680.32h52.032v-181.696h1.216c18.56 32.256 52.032 52.608 98.624 52.608 72.32 0 122.56-59.776 122.56-147.008 0-103.424-65.728-154.752-130.304-154.752-41.792 0-75.328 16.128-97.408 53.76h-1.28l-3.008-47.232h-44.8c1.216 19.712 2.368 49.024 2.368 74.688v349.632zM447.744 371.968c0-6.592 0.576-13.184 2.432-19.136 9.536-36.416 40.64-61.568 78.848-61.568 55.616 0 87.872 44.8 87.872 111.168 0 57.984-29.888 107.584-86.656 107.584-35.264 0-68.736-25.088-79.488-64.512-1.856-6.656-3.008-13.76-3.008-22.144v-51.392zM942.080 266.112c-13.76-6.592-44.224-16.704-83.072-16.704-87.232 0-144.064 59.136-144.064 147.584 0 89.088 60.928 154.24 155.392 154.24 31.104 0 58.56-7.808 72.96-15.552l-11.968-40.064c-12.544 6.592-32.32 13.76-60.992 13.76-66.304 0-102.208-49.6-102.208-109.376 0-66.944 43.072-108.224 100.416-108.224 29.888 0 49.536 7.168 64.512 13.76l9.024-39.424zM64 385.728v29.888h896v-29.888h-896z" />
<glyph unicode="&#xe658;" glyph-name="text" d="M401.28 320.448l-63.552-192.448h-81.728l208.768 611.84h94.464l208.768-611.84h-84.416l-65.344 192.448h-216.96zM602.816 382.208l-60.864 176.128c-13.632 39.936-22.656 76.224-31.744 111.616h-1.856c-9.088-35.392-18.112-73.536-30.848-110.72l-59.904-177.024h185.216z" />
<glyph unicode="&#xe659;" glyph-name="fx" d="M490.496 598.144l-51.2-202.112c-23.936-95.36-47.232-164.48-70.016-207.36s-49.344-74.624-79.808-95.104c-30.528-20.608-65.408-30.848-104.832-30.848-24.832 0-43.008 4.736-54.656 14.272-11.712 9.408-17.472 20.608-17.472 33.408 0 11.968 4.8 22.336 14.464 31.040s22.336 13.12 38.080 13.12c13.12 0 23.168-3.392 30.208-10.048s10.496-15.168 10.496-25.344c0-9.344-2.176-16.256-6.592-20.8-4.352-4.48-6.592-7.488-6.592-8.96l2.176-3.072c1.728-1.408 3.84-2.176 6.144-2.176 8.768 0 16.192 2.752 22.336 8.32 15.424 13.696 27.008 30.336 34.56 49.856 5.248 13.44 15.296 48.896 30.208 106.304l89.28 349.568h-60.8l14.464 51.2c21.888-0.32 37.76 2.496 47.68 8.32s20.416 18.944 31.488 39.36c32.064 59.2 65.92 101.632 101.504 127.296s75.264 38.528 118.976 38.528c28.032 0 48.384-5.376 60.992-16.192 12.736-10.816 19.072-24.832 19.072-41.984 0-15.168-4.224-27.2-12.672-36.096-8.576-9.024-19.072-13.44-31.616-13.44-11.712 0-21.312 3.648-28.864 10.944s-11.392 16.064-11.392 26.24c0 7.296 2.368 14.976 7.232 23.168 4.736 8.192 7.168 13.696 7.168 16.64 0 3.2-1.088 5.824-3.328 7.872-2.048 2.048-4.928 3.072-8.448 3.072-17.216 0-34.88-10.624-52.928-31.936-29.76-34.112-53.696-88.064-71.744-161.856h63.424l-15.296-51.2h-61.696zM551.552 513.408l128.768 22.144c23.36-36.672 39.872-76.992 49.408-121.024 24.128 35.648 42.304 60.672 54.656 74.88 16.448 19.2 30.080 31.68 40.704 37.44 10.816 5.76 22.208 8.64 34.176 8.64 13.504 0 23.936-3.712 31.168-11.072 7.232-7.424 10.88-17.344 10.88-29.888 0-11.84-3.648-21.44-10.88-28.928-7.232-7.424-16.256-11.2-27.136-11.2-7.872 0-16.896 1.408-27.136 4.224-10.176 2.88-17.344 4.288-21.184 4.288-10.368 0-20.16-3.712-29.568-11.072-12.736-10.112-28.48-31.616-47.168-64.576 20.864-73.792 37.632-118.784 50.176-135.040 7.36-9.6 14.848-14.4 22.528-14.4 6.4 0 11.968 1.6 16.576 4.736 7.168 5.184 18.112 18.112 32.896 38.72l13.248-7.744c-21.632-34.88-42.752-59.584-63.424-73.728-15.744-11.072-31.168-16.64-46.528-16.64-15.68 0-28.8 3.584-39.232 10.496-10.496 7.040-19.776 18.432-27.904 34.368-8.128 15.744-17.728 41.28-28.8 76.096-28.736-36.672-51.328-63.36-67.712-80.256-16.32-16.832-29.888-27.84-40.768-33.024s-22.4-7.744-34.688-7.744c-12.736 0-22.912 3.712-30.4 11.072-7.552 7.36-11.264 17.024-11.264 28.8 0 12.48 4.032 22.848 12.16 30.912 8.064 8.128 18.432 12.16 30.976 12.16 6.656 0 14.208-1.984 22.528-5.888 12.352-5.952 21.184-8.896 26.56-8.896 7.168 0 13.504 1.472 19.2 4.416 7.36 3.712 16.768 11.648 28.032 24 6.848 7.552 19.584 23.808 38.016 48.704-23.616 87.808-42.112 140.224-55.36 157.376-8.384 11.072-19.008 16.64-31.744 16.64-6.656 0-14.72-0.96-24.32-2.944l2.56 13.952z" />
<glyph unicode="&#xe65a;" glyph-name="subscript" d="M577.984 704h62.016v-65.984l-190.016-190.016 190.016-190.016v-65.984h-62.016l-192 192-192-192h-64l-1.984 1.984v60.032l193.984 193.984-193.984 193.984v60.032l1.984 1.984h64l192-192 192 192zM791.744 109.056l-0.576 1.152 34.176 36.416c22.208 24.256 37.44 42.496 45.696 54.656 8.256 12.352 12.352 26.368 12.352 42.368 0 23.68-7.808 42.368-23.296 56-15.552 13.632-37.184 20.352-64.832 20.352-26.176 0-47.104-8-62.976-24.256-15.808-16.256-23.424-36.032-22.848-59.392l0.448-1.152h57.152c0 11.648 2.56 21.12 7.552 28.608 5.056 7.424 11.968 11.072 20.736 11.072 9.792 0 17.216-2.816 22.080-8.576 4.928-5.888 7.36-13.632 7.36-23.36 0-6.72-2.432-14.784-7.232-24-4.864-9.28-12.416-19.776-22.72-31.552l-81.152-85.312v-38.080h176.64v45.056h-98.56z" />
<glyph unicode="&#xe65b;" glyph-name="superscript" d="M577.984 704h62.016v-65.984l-190.016-190.016 190.016-190.016v-65.984h-62.016l-192 192-192-192h-64l-1.984 1.984v60.032l193.984 193.984-193.984 193.984v60.032l1.984 1.984h64l192-192 192 192zM791.744 621.056l-0.576 1.152 34.176 36.48c22.208 24.256 37.44 42.432 45.696 54.656 8.256 12.352 12.352 26.368 12.352 42.304 0 23.744-7.808 42.432-23.296 56-15.552 13.568-37.184 20.352-64.832 20.352-26.176 0-47.104-8-62.976-24.256-15.808-16.192-23.424-36.032-22.848-59.328l0.448-1.088h57.152c0 11.648 2.56 21.056 7.552 28.544 5.056 7.488 11.968 11.072 20.736 11.072 9.792 0 17.216-2.752 22.080-8.576 4.928-5.824 7.36-13.568 7.36-23.296 0-6.784-2.432-14.848-7.232-24-4.864-9.28-12.416-19.84-22.72-31.616l-81.152-85.312v-38.144h176.64v45.056h-98.56z" />
<glyph unicode="&#xe65c;" glyph-name="background" d="M480 832c0 0-288-256-288-480 0-159.040 128.96-288 288-288s288 128.96 288 288c0 224-288 480-288 480zM480 128c-123.776 0-224 100.224-224 224 0 192 224 393.344 224 393.344s224-201.344 224-393.344c0-123.776-100.224-224-224-224zM608 384c0-88.384-71.616-160-160-160v64c52.992 0 96 43.008 96 96h64z" />
<glyph unicode="&#xe65d;" glyph-name="sum" d="M768 832h-576v-128l256-256-256-256v-128h576v128h-448l256 256-256 256h448z" />
<glyph unicode="&#xe65e;" glyph-name="increase-decimal" d="M768 448c-70.656 0-128-57.344-128-128v-128c0-70.656 57.344-128 128-128 70.72 0 128 57.344 128 128v128c0 70.656-57.28 128-128 128zM832 211.968c0-47.104-28.608-85.376-64-85.376-35.264 0-64 38.272-64 85.376v85.376c0 47.040 28.736 85.248 64 85.248 35.392 0 64-38.208 64-85.248v-85.376zM768 896c-70.656 0-128-57.344-128-128v-128c0-70.656 57.344-128 128-128 70.72 0 128 57.344 128 128v128c0 70.656-57.28 128-128 128zM832 659.968c0-47.104-28.608-85.312-64-85.312-35.264 0-64 38.208-64 85.312v85.376c0 47.104 28.736 85.312 64 85.312 35.392 0 64-38.208 64-85.312v-85.376zM448 448c-70.656 0-128-57.344-128-128v-128c0-70.656 57.344-128 128-128s128 57.344 128 128v128c0 70.656-57.28 128-128 128zM512 211.968c0-47.104-28.672-85.376-64-85.376s-64 38.272-64 85.376v85.376c0 47.040 28.672 85.248 64 85.248s64-38.208 64-85.248v-85.376zM192 128h64v-64h-64v64zM512 576h64v-64h-64v64zM384 896v-384l-230.4 192z" />
<glyph unicode="&#xe65f;" glyph-name="decrease-decimal" d="M768 896c-70.656 0-128-57.344-128-128v-128c0-70.656 57.344-128 128-128 70.72 0 128 57.344 128 128v128c0 70.656-57.28 128-128 128zM832 659.968c0-47.104-28.608-85.376-64-85.376-35.264 0-64 38.272-64 85.376v85.376c0 47.040 28.736 85.248 64 85.248 35.392 0 64-38.208 64-85.248v-85.376zM768 448c-70.656 0-128-57.344-128-128v-128c0-70.656 57.344-128 128-128 70.72 0 128 57.344 128 128v128c0 70.656-57.28 128-128 128zM832 211.968c0-47.104-28.608-85.376-64-85.376-35.264 0-64 38.272-64 85.376v85.376c0 47.040 28.736 85.248 64 85.248 35.392 0 64-38.208 64-85.248v-85.376zM448 896c-70.656 0-128-57.344-128-128v-128c0-70.656 57.344-128 128-128s128 57.344 128 128v128c0 70.656-57.28 128-128 128zM512 659.968c0-47.104-28.672-85.376-64-85.376s-64 38.272-64 85.376v85.376c0 47.040 28.672 85.248 64 85.248s64-38.208 64-85.248v-85.376zM256 512h-64v64h64v-64zM576 64h-64v64h64v-64zM358.4 256l-230.4-192v384l230.4-192z" />
<glyph unicode="&#xe660;" glyph-name="justify-left" d="M896 768h-768v64h768v-64zM896 576h-768v-64h768v64zM704 704h-576v-64h576v64zM704 448h-576v-64h576v64zM704 192h-576v-64h576v64zM896 320h-768v-64h768v64z" />
<glyph unicode="&#xe661;" glyph-name="justify-center" d="M128 832h768v-64h-768v64zM128 512h768v64h-768v-64zM256 640h512v64h-512v-64zM256 384h512v64h-512v-64zM256 128h512v64h-512v-64zM128 256h768v64h-768v-64z" />
<glyph unicode="&#xe662;" glyph-name="justify-right" d="M128 832h768v-64h-768v64zM128 512h768v64h-768v-64zM320 640h576v64h-576v-64zM320 384h576v64h-576v-64zM320 128h576v64h-576v-64zM128 256h768v64h-768v-64z" />
<glyph unicode="&#xe663;" glyph-name="justify-full" d="M128 832h768v-64h-768v64zM128 512h768v64h-768v-64zM128 640h768v64h-768v-64zM128 384h768v64h-768v-64zM128 128h768v64h-768v-64zM128 256h768v64h-768v-64z" />
<glyph unicode="&#xe664;" glyph-name="justify-clear" d="M128 128h512l64-64h-576v64zM128 192h448l-64 64h-384v-64zM128 320h320l-64 64h-256v-64zM128 448h192l-64 64h-128v-64zM128 576h64l-64 64v-64zM830.336 192h65.664v64h-128v-1.664l-65.664 65.664h193.664v64h-256v-1.664l-65.664 65.664h321.664v64h-384v-1.664l-65.664 65.664h449.664v64h-512v-1.664l-65.6 65.664h577.6v64h-640v-1.6l-128.832 128.768-43.584-43.584 858.56-858.624 43.648 43.648-155.456 155.392z" />
<glyph unicode="&#xe665;" glyph-name="align-top" d="M128 896h768v-64h-768v64zM128 576h768v64h-768v-64zM192 704h640v64h-640v-64z" />
<glyph unicode="&#xe666;" glyph-name="align-middle" d="M128 640h768v-64h-768v64zM128 320h768v64h-768v-64zM192 448h640v64h-640v-64z" />
<glyph unicode="&#xe667;" glyph-name="align-bottom" d="M128 320h768v-64h-768v64zM128 0h768v64h-768v-64zM192 128h640v64h-640v-64z" />
<glyph unicode="&#xe668;" glyph-name="indent" d="M128 832h768v-64h-768v64zM512 512h384v64h-384v-64zM512 640h384v64h-384v-64zM512 384h384v64h-384v-64zM128 128h768v64h-768v-64zM128 256h768v64h-768v-64zM128 704v-320l192 160-192 160z" />
<glyph unicode="&#xe669;" glyph-name="outdent" d="M128 832h768v-64h-768v64zM512 512h384v64h-384v-64zM512 640h384v64h-384v-64zM512 384h384v64h-384v-64zM128 128h768v64h-768v-64zM128 256h768v64h-768v-64zM128 544l192-160v320l-192-160z" />
<glyph unicode="&#xe66a;" glyph-name="insert-n" d="M704 448h-704v64h704v-64zM832 480l192-192v384l-192-192zM704 320h-384v-64h384v64zM704 192h-384v-64h384v64z" />
<glyph unicode="&#xe66b;" glyph-name="insert-m" d="M832 480l192 192v-384l-192 192zM704 320h-384v-64h384v64zM704 704h-384v-64h384v64zM704 512h-704v-64h704v64z" />
<glyph unicode="&#xe66c;" glyph-name="insert-s" d="M704 448h-704v64h704v-64zM832 480l192-192v384l-192-192zM704 704h-384v-64h384v64zM704 832h-384v-64h384v64z" />
<glyph unicode="&#xe66d;" glyph-name="insert-unordered-list" d="M384 768h512v-64h-512v64zM384 448h512v64h-512v-64zM384 192h512v64h-512v-64zM224 832c-52.992 0-96-42.944-96-96s43.008-96 96-96 96 42.944 96 96-43.008 96-96 96zM224 576c-52.992 0-96-42.944-96-96s43.008-96 96-96 96 42.944 96 96-43.008 96-96 96zM224 320c-52.992 0-96-43.008-96-96s43.008-96 96-96 96 43.008 96 96-43.008 96-96 96z" />
<glyph unicode="&#xe66e;" glyph-name="insert-ordered-list" d="M384 768h512v-64h-512v64zM384 448h512v64h-512v-64zM384 192h512v64h-512v-64zM241.792 864.128h-37.12c-5.184-14.528-14.784-27.2-28.8-38.080-13.888-10.944-26.88-18.304-38.848-22.208v-41.472c22.72 7.488 42.432 19.072 59.072 34.688v-172.224h45.696v239.296zM188.416 402.56c2.432 4.096 5.568 8.32 9.344 12.672 3.84 4.352 12.992 13.12 27.456 26.368 14.4 13.184 24.384 23.36 30.016 30.4 8.256 10.624 14.336 20.8 18.24 30.528 3.84 9.728 5.76 19.968 5.76 30.656 0 18.816-6.656 34.624-20.16 47.296-13.44 12.736-31.936 19.008-55.424 19.008-21.504 0-39.36-5.44-53.76-16.448-14.272-10.944-22.784-28.992-25.472-54.080l45.504-4.544c0.832 13.248 4.096 22.848 9.792 28.544 5.632 5.76 13.248 8.64 22.784 8.64 9.664 0 17.216-2.752 22.656-8.192 5.44-5.504 8.192-13.312 8.192-23.488 0-9.216-3.072-18.56-9.472-28.032-4.608-6.784-17.28-19.84-37.824-39.040-25.664-23.68-42.752-42.752-51.392-57.152-8.704-14.336-13.888-29.568-15.616-45.568h160.128v42.432h-90.752zM148.032 88.896c14.144-12.416 32.064-18.624 53.568-18.624 22.72 0 41.792 7.424 57.152 22.144 15.232 14.72 22.912 32.64 22.912 53.504 0 14.464-4.16 26.752-12.288 36.928-8.128 10.24-19.136 16.768-32.768 19.712 22.912 12.48 34.304 29.12 34.304 50.048 0 14.72-5.568 28.032-16.832 39.68-13.44 14.4-31.424 21.504-53.888 21.504-13.184 0-25.024-2.496-35.648-7.424-10.56-4.864-18.752-11.648-24.64-20.288-5.952-8.64-10.368-20.096-13.312-34.56l42.112-7.104c1.28 10.368 4.544 18.304 10.048 23.68 5.568 5.44 12.224 8.192 19.968 8.192 8 0 14.336-2.432 19.072-7.232 4.8-4.672 7.232-11.136 7.232-19.136 0-9.408-3.264-16.96-9.792-22.656s-15.936-8.384-28.224-8.064l-5.12-37.248c8.192 2.24 15.168 3.456 20.992 3.456 8.896 0 16.512-3.328 22.592-10.048 6.208-6.72 9.344-15.872 9.344-27.392 0-12.032-3.264-21.76-9.664-28.928-6.528-7.104-14.4-10.688-23.872-10.688-8.768 0-16.256 2.944-22.464 9.024-6.208 5.888-9.92 14.592-11.328 25.728l-44.224-5.504c2.304-20.032 10.496-36.288 24.768-48.704z" />
<glyph unicode="&#xe66f;" glyph-name="sort-asc" d="M320 704h-192v64h192v-64zM512 576h-384v-64h384v64zM704 384h-576v-64h576v64zM896 192h-768v-64h768v64z" />
<glyph unicode="&#xe670;" glyph-name="sort-desc" d="M128 192h192v-64h-192v64zM128 384h384v-64h-384v64zM128 576h576v-64h-576v64zM128 768h768v-64h-768v64z" />
<glyph unicode="&#xe671;" glyph-name="unsort" d="M512 384h-384v-64h384v64zM704 576h-576v-64h576v64zM320 704h-192v64h192v-64zM896 192h-768v-64h768v64z" />
<glyph unicode="&#xe672;" glyph-name="hyperlink" d="M768 192c-94.72 0-177.344 51.52-221.632 128h221.632c70.656 0 128 57.344 128 128s-57.344 128-128 128h-221.632c44.288 76.48 126.912 128 221.632 128 141.376 0 256-114.624 256-256s-114.624-256-256-256v0zM256 448c0 35.392 28.672 64 64 64h384c35.392 0 64-28.608 64-64s-28.608-64-64-64h-384c-35.328 0-64 28.608-64 64v0zM128 448c0-70.656 57.344-128 128-128h221.632c-44.224-76.48-126.912-128-221.632-128-141.376 0-256 114.624-256 256s114.624 256 256 256c94.72 0 177.344-51.52 221.632-128h-221.632c-70.656 0-128-57.344-128-128v0z" />
<glyph unicode="&#xe673;" glyph-name="hyperlink-remove" d="M320 448c0 35.392-28.672 64-64 64h-128c-35.328 0-64-28.608-64-64 0-35.328 28.672-64 64-64h128c35.328 0 64 28.672 64 64zM308.672 818.688l-65.984 65.984-35.392-35.328 66.048-66.048zM203.328 50.688l35.328-35.392 66.048 66.048-35.392 35.328zM925.696 576c-44.288 76.48-126.976 128-221.696 128-34.688 0-67.84-6.976-97.984-19.52v-108.48h319.68zM880.704 849.344l-35.392 35.328-65.984-65.984 35.328-35.392zM162.368 320c44.224-76.48 126.912-128 221.632-128 34.688 0 67.84 6.976 97.984 19.52v108.48h-319.616zM783.296 81.344l66.048-66.048 35.328 35.392-65.984 65.984zM960 512h-128c-35.328 0-64-28.608-64-64 0-35.328 28.672-64 64-64h128c35.328 0 64 28.672 64 64 0 35.392-28.672 64-64 64zM606.016 320v-108.48c30.144-12.544 63.296-19.52 97.984-19.52 94.72 0 177.408 51.52 221.696 128h-319.68zM162.368 576h319.616v108.48c-30.144 12.544-63.296 19.52-97.984 19.52-94.72 0-177.408-51.52-221.632-128zM512 926.016h64v-158.016h-64v158.016zM512 128h64v-158.016h-64v158.016z" />
<glyph unicode="&#xe674;" glyph-name="clearformat" d="M874.048 628.992l-271.552 271.552-452.544-452.544v-180.992l234.048-234.048v-32.96h448v64h-341.952l384 384v180.992zM810.048 564.992l-388.544-388.544-207.552 207.552v37.44l388.544 388.608 207.552-207.552v-37.504z" />
<glyph unicode="&#xe675;" glyph-name="html" d="M320 128l-320 320 320 320v-128l-192-192 192-192v-128zM704 128l320 320-320 320v-128l192-192-192-192v-128zM640 896h-64l-192-896h64l192 896z" />
<glyph unicode="&#xe676;" glyph-name="exception" d="M512 832c-212.032 0-384-171.968-384-384s171.968-384 384-384 384 171.968 384 384-171.968 384-384 384zM832 448c0-176.768-143.232-320-320-320-176.704 0-320 143.232-320 320s143.296 320 320 320c176.768 0 320-143.232 320-320zM576 384h-128v256h128v-256zM576 256h-128v64h128v-64z" />
<glyph unicode="&#xe677;" glyph-name="custom" d="M841.152 404.416c-79.168-29.056-101.056-81.792-65.536-158.4 35.456-76.544 14.912-97.088-61.632-61.568-76.544 35.456-129.344 13.568-158.4-65.6-29.056-79.232-58.112-79.232-87.104 0-29.056 79.168-81.856 101.056-158.4 65.6-76.544-35.52-97.088-14.976-61.632 61.568 35.52 76.544 13.632 129.344-65.6 158.4s-79.232 58.112 0 87.104 101.12 81.792 65.6 158.4c-35.456 76.608-14.976 97.088 61.632 61.632 76.544-35.52 129.344-13.632 158.4 65.6s58.112 79.232 87.104 0c29.056-79.232 81.792-101.12 158.4-65.6 76.544 35.456 97.088 14.912 61.632-61.632-35.52-76.544-13.632-129.344 65.536-158.4 79.232-28.992 79.232-58.048 0-87.104v0zM512 576c-70.656 0-128-57.344-128-128s57.344-128 128-128 128 57.344 128 128-57.344 128-128 128v0z" />
<glyph unicode="&#xe678;" glyph-name="cog" d="M960 448c0 27.52-2.496 54.4-7.232 80.512h-85.696c-9.28 40.96-25.344 79.168-47.040 113.6l60.608 60.608c-15.104 21.824-32.384 42.624-51.904 62.080-19.392 19.392-40.192 36.672-62.016 51.84l-60.608-60.672c-34.368 21.76-72.768 37.888-113.6 47.104v85.696c-26.112 4.736-52.992 7.232-80.512 7.232-27.456 0-54.4-2.496-80.512-7.232v-85.696c-40.896-9.28-79.232-25.408-113.6-47.104l-60.608 60.672c-21.824-15.168-42.624-32.448-62.080-51.84-19.456-19.456-36.736-40.256-51.84-62.080l60.608-60.608c-21.632-34.432-37.76-72.704-47.040-113.6h-85.696c-4.736-26.112-7.232-52.992-7.232-80.512s2.496-54.4 7.232-80.512h85.696c9.28-40.896 25.344-79.104 47.104-113.6l-60.608-60.608c15.104-21.76 32.384-42.624 51.84-62.016s40.192-36.736 62.016-51.904l60.608 60.736c34.432-21.76 72.704-37.888 113.6-47.104v-85.76c26.112-4.736 53.056-7.232 80.512-7.232 27.52 0 54.4 2.496 80.512 7.232v85.76c40.896 9.28 79.232 25.344 113.6 47.104l60.608-60.736c21.824 15.104 42.624 32.512 62.016 51.904 19.52 19.392 36.736 40.256 51.904 62.016l-60.608 60.608c21.696 34.496 37.824 72.768 47.040 113.6h85.696c4.736 26.112 7.232 52.992 7.232 80.512zM512 300.992c-81.088 0-147.008 65.984-147.008 147.008 0 81.088 65.92 147.008 147.008 147.008s147.008-65.92 147.008-147.008c0-81.024-65.92-147.008-147.008-147.008z" />
<glyph unicode="&#xe679;" glyph-name="create-table" d="M960 896v-832h-576v256h-256v576h832zM640 640v192h-192v-192h192zM448 576v-192h192v192h-192zM896 832h-192v-192h192v192zM896 576h-192v-192h192v192zM896 128v192h-192v-192h192zM448 128h192v192h-192v-192zM192 384h192v192h-192v-192zM192 640h192v192h-192v-192zM0 64h128v-128h64v128h128v64h-128v128h-64v-128h-128v-64z" />
<glyph unicode="&#xe67a;" glyph-name="add-column-left" d="M64 0v960h256v-960h-256zM960 896v-832l-576 0.064v831.936h576zM448 640h192v192h-192v-192zM448 384h192v192h-192v-192zM448 128h192v192h-192v-192zM896 320h-192v-192h192v192zM896 384v192h-192v-192h192zM896 832h-192v-192h192v192z" />
<glyph unicode="&#xe67b;" glyph-name="add-column-right" d="M704 0v960h256v-960h-256zM640 896v-832h-576v832h576zM576 832h-192v-192h192v192zM576 576h-192v-192h192v192zM576 320h-192v-192h192v192zM128 128h192v192h-192v-192zM320 384v192h-192v-192h192zM128 640h192v192h-192v-192z" />
<glyph unicode="&#xe67c;" glyph-name="delete-column" d="M352 726.72v41.28h38.72l120-120 120 120h40l1.28-1.28v-37.504l-121.28-121.216 121.28-121.28v-37.44l-1.28-1.28h-40l-120 120-120-120h-38.72v41.28l118.72 118.72-118.72 118.72zM384 384v-448h256v448h-256zM384 960v-128h256v128h-256zM704 896h256v-832h-256v832zM896 320h-128v-192h128v192zM896 576h-128v-192h128v192zM896 832h-128v-192h128v192zM64 896h256v-832h-256v832zM256 320h-128v-192h128v192zM256 576h-128v-192h128v192zM256 832h-128v-192h128v192z" />
<glyph unicode="&#xe67d;" glyph-name="add-row-above" d="M1024 640h-960v256h960v-256zM128 576h832v-576h-832v576zM192 512v-192h192v192h-192zM448 512v-192h192v192h-192zM704 512v-192h192v192h-192zM896 64v192h-192v-192h192zM640 256h-192v-192h192v192zM384 64v192h-192v-192h192z" />
<glyph unicode="&#xe67e;" glyph-name="add-row-below" d="M1024 0h-960v256h960v-256zM128 896h832v-576h-832v576zM384 384v192h-192v-192h192zM640 384v192h-192v-192h192zM896 384v192h-192v-192h192zM704 832v-192h192v192h-192zM640 832h-192v-192h192v192zM192 832v-192h192v192h-192z" />
<glyph unicode="&#xe67f;" glyph-name="delete-row" d="M790.72 608h41.28v-38.72l-120-120 120-120v-40l-1.28-1.28h-37.504l-121.216 121.28-121.28-121.28h-37.44l-1.28 1.28v40l120 120-120 120v38.72h41.28l118.72-118.72 118.72 118.72zM448 576h-448v-256h448v256zM1024 576h-128v-256h128v256zM960 256v-256h-832v256h832zM384 64v128h-192v-128h192zM640 64v128h-192v-128h192zM896 64v128h-192v-128h192zM960 896v-256h-832v256h832zM384 704v128h-192v-128h192zM640 704v128h-192v-128h192zM896 704v128h-192v-128h192z" />
<glyph unicode="&#xe680;" glyph-name="merge-cells" d="M64 896v-896h832v896h-832zM384 832h192v-128h-192v128zM128 832h192v-128h-192v128zM320 64h-192v128h192v-128zM576 64h-192v128h192v-128zM832 64h-192v128h192v-128zM832 256h-704v384h704v-384zM832 704h-192v128h192v-128z" />
<glyph unicode="&#xe681;" glyph-name="normal-layout" d="M64 896v-832h832v832h-832zM576 832v-192h-192v192h192zM576 576v-192h-192v192h192zM128 832h192v-192h-192v192zM128 576h192v-192h-192v192zM128 128v192h192v-192h-192zM384 128v192h192v-192h-192zM832 128h-192v192h192v-192zM832 384h-192v192h192v-192zM832 640h-192v192h192v-192z" />
<glyph unicode="&#xe682;" glyph-name="page-layout" d="M576 576h-192v64h192v-64zM576 512h-192v-64h192v64zM576 384h-192v-64h192v64zM704 768v-576h-448v576h448zM640 704h-320v-448h320v448zM896 896v-832h-832v832h832zM832 832h-704v-704h704v704z" />
<glyph unicode="&#xe683;" glyph-name="all-borders" d="M64 896v-832h832v832h-832zM128 832h320v-320h-320v320zM128 128v320h320v-320h-320zM832 128h-320v320h320v-320zM832 512h-320v320h320v-320z" />
<glyph unicode="&#xe684;" glyph-name="inside-borders" d="M128 832h-64v64h64v-64zM128 768h-64v-64h64v64zM128 640h-64v-64h64v64zM128 384h-64v-64h64v64zM128 256h-64v-64h64v64zM896 768h-64v-64h64v64zM896 640h-64v-64h64v64zM896 384h-64v-64h64v64zM896 256h-64v-64h64v64zM256 896h-64v-64h64v64zM384 896h-64v-64h64v64zM128 128h-64v-64h64v64zM256 128h-64v-64h64v64zM384 128h-64v-64h64v64zM640 128h-64v-64h64v64zM768 128h-64v-64h64v64zM896 128h-64v-64h64v64zM640 896h-64v-64h64v64zM768 896h-64v-64h64v64zM896 896h-64v-64h64v64zM896 512h-384v384h-64v-384h-384v-64h384v-384h64v384h384v64z" />
<glyph unicode="&#xe685;" glyph-name="inside-horizontal-borders" d="M896 512v-64h-832v64h832zM128 896h-64v-64h64v64zM128 704h-64v64h64v-64zM128 576h-64v64h64v-64zM128 320h-64v64h64v-64zM128 192h-64v64h64v-64zM896 704h-64v64h64v-64zM896 576h-64v64h64v-64zM896 320h-64v64h64v-64zM896 192h-64v64h64v-64zM256 832h-64v64h64v-64zM384 832h-64v64h64v-64zM512 832h-64v64h64v-64zM512 704h-64v64h64v-64zM512 576h-64v64h64v-64zM512 320h-64v64h64v-64zM512 192h-64v64h64v-64zM512 64h-64v64h64v-64zM128 128h-64v-64h64v64zM256 64h-64v64h64v-64zM384 64h-64v64h64v-64zM640 128h-64v-64h64v64zM768 64h-64v64h64v-64zM896 64h-64v64h64v-64zM640 896h-64v-64h64v64zM768 832h-64v64h64v-64zM896 832h-64v64h64v-64z" />
<glyph unicode="&#xe686;" glyph-name="inside-vertical-borders" d="M512 64h-64v832h64v-832zM896 832v64h-64v-64h64zM704 832v64h64v-64h-64zM576 832v64h64v-64h-64zM320 832v64h64v-64h-64zM192 832v64h64v-64h-64zM704 64v64h64v-64h-64zM576 64v64h64v-64h-64zM320 64v64h64v-64h-64zM192 64v64h64v-64h-64zM832 704v64h64v-64h-64zM832 576v64h64v-64h-64zM832 448v64h64v-64h-64zM704 448v64h64v-64h-64zM576 448v64h64v-64h-64zM320 448v64h64v-64h-64zM192 448v64h64v-64h-64zM64 448v64h64v-64h-64zM128 832v64h-64v-64h64zM64 704v64h64v-64h-64zM64 576v64h64v-64h-64zM128 320v64h-64v-64h64zM64 192v64h64v-64h-64zM64 64v64h64v-64h-64zM896 320v64h-64v-64h64zM832 192v64h64v-64h-64zM832 64v64h64v-64h-64z" />
<glyph unicode="&#xe687;" glyph-name="outside-borders" d="M256 448h-64v64h64v-64zM384 512h-64v-64h64v64zM512 512h-64v-64h64v64zM512 640h-64v-64h64v64zM512 768h-64v-64h64v64zM512 256h-64v-64h64v64zM512 384h-64v-64h64v64zM640 512h-64v-64h64v64zM768 512h-64v-64h64v64zM896 896v-832h-832v832h832zM832 832h-704v-704h704v704z" />
<glyph unicode="&#xe688;" glyph-name="top-border" d="M896 896v-64h-832v64h832zM128 768h-64v-64h64v64zM128 576h-64v64h64v-64zM128 448h-64v64h64v-64zM128 320h-64v64h64v-64zM128 192h-64v64h64v-64zM896 576h-64v64h64v-64zM896 448h-64v64h64v-64zM896 320h-64v64h64v-64zM896 192h-64v64h64v-64zM256 448h-64v64h64v-64zM384 448h-64v64h64v-64zM512 704h-64v64h64v-64zM512 576h-64v64h64v-64zM512 448h-64v64h64v-64zM512 320h-64v64h64v-64zM512 192h-64v64h64v-64zM512 64h-64v64h64v-64zM128 128h-64v-64h64v64zM256 64h-64v64h64v-64zM384 64h-64v64h64v-64zM640 128h-64v-64h64v64zM768 64h-64v64h64v-64zM896 64h-64v64h64v-64zM640 512h-64v-64h64v64zM768 448h-64v64h64v-64zM896 704h-64v64h64v-64z" />
<glyph unicode="&#xe689;" glyph-name="right-border" d="M896 64h-64v832h64v-832zM768 832v64h-64v-64h64zM576 832v64h64v-64h-64zM448 832v64h64v-64h-64zM320 832v64h64v-64h-64zM192 832v64h64v-64h-64zM576 64v64h64v-64h-64zM448 64v64h64v-64h-64zM320 64v64h64v-64h-64zM192 64v64h64v-64h-64zM448 704v64h64v-64h-64zM448 576v64h64v-64h-64zM704 448v64h64v-64h-64zM576 448v64h64v-64h-64zM448 448v64h64v-64h-64zM320 448v64h64v-64h-64zM192 448v64h64v-64h-64zM64 448v64h64v-64h-64zM128 832v64h-64v-64h64zM64 704v64h64v-64h-64zM64 576v64h64v-64h-64zM128 320v64h-64v-64h64zM64 192v64h64v-64h-64zM64 64v64h64v-64h-64zM512 320v64h-64v-64h64zM448 192v64h64v-64h-64zM704 64v64h64v-64h-64z" />
<glyph unicode="&#xe68a;" glyph-name="bottom-border" d="M64 64v64h832v-64h-832zM832 192h64v64h-64v-64zM832 384h64v-64h-64v64zM832 512h64v-64h-64v64zM832 640h64v-64h-64v64zM832 768h64v-64h-64v64zM64 384h64v-64h-64v64zM64 512h64v-64h-64v64zM64 640h64v-64h-64v64zM64 768h64v-64h-64v64zM704 512h64v-64h-64v64zM576 512h64v-64h-64v64zM448 256h64v-64h-64v64zM448 384h64v-64h-64v64zM448 512h64v-64h-64v64zM448 640h64v-64h-64v64zM448 768h64v-64h-64v64zM448 896h64v-64h-64v64zM832 832h64v64h-64v-64zM704 896h64v-64h-64v64zM576 896h64v-64h-64v64zM320 832h64v64h-64v-64zM192 896h64v-64h-64v64zM64 896h64v-64h-64v64zM320 448h64v64h-64v-64zM192 512h64v-64h-64v64zM64 256h64v-64h-64v64z" />
<glyph unicode="&#xe68b;" glyph-name="left-border" d="M64 896h64v-832h-64v832zM192 128v-64h64v64h-64zM384 128v-64h-64v64h64zM512 128v-64h-64v64h64zM640 128v-64h-64v64h64zM768 128v-64h-64v64h64zM384 896v-64h-64v64h64zM512 896v-64h-64v64h64zM640 896v-64h-64v64h64zM768 896v-64h-64v64h64zM512 256v-64h-64v64h64zM512 384v-64h-64v64h64zM256 512v-64h-64v64h64zM384 512v-64h-64v64h64zM512 512v-64h-64v64h64zM640 512v-64h-64v64h64zM768 512v-64h-64v64h64zM896 512v-64h-64v64h64zM832 128v-64h64v64h-64zM896 256v-64h-64v64h64zM896 384v-64h-64v64h64zM832 640v-64h64v64h-64zM896 768v-64h-64v64h64zM896 896v-64h-64v64h64zM448 640v-64h64v64h-64zM512 768v-64h-64v64h64zM256 896v-64h-64v64h64z" />
<glyph unicode="&#xe68c;" glyph-name="no-borders" d="M768 832v64h-64v-64h64zM576 832v64h64v-64h-64zM448 832v64h64v-64h-64zM320 832v64h64v-64h-64zM192 832v64h64v-64h-64zM576 64v64h64v-64h-64zM448 64v64h64v-64h-64zM320 64v64h64v-64h-64zM192 64v64h64v-64h-64zM448 704v64h64v-64h-64zM448 576v64h64v-64h-64zM704 448v64h64v-64h-64zM576 448v64h64v-64h-64zM448 448v64h64v-64h-64zM320 448v64h64v-64h-64zM192 448v64h64v-64h-64zM64 448v64h64v-64h-64zM128 832v64h-64v-64h64zM64 704v64h64v-64h-64zM64 576v64h64v-64h-64zM128 320v64h-64v-64h64zM64 192v64h64v-64h-64zM64 64v64h64v-64h-64zM832 448v64h64v-64h-64zM896 832v64h-64v-64h64zM832 704v64h64v-64h-64zM832 576v64h64v-64h-64zM896 320v64h-64v-64h64zM832 192v64h64v-64h-64zM832 64v64h64v-64h-64zM512 320v64h-64v-64h64zM448 192v64h64v-64h-64zM704 64v64h64v-64h-64z" />
<glyph unicode="&#xe68d;" glyph-name="pdfa" d="M576 896h-384v-832h640v576l-256 256zM768 128h-512v704h320v-192h192v-512zM750.656 403.2c-0.512 4.352-3.52 9.664-7.104 13.312-9.472 10.368-30.72 15.808-62.976 16.32-21.76 0.192-48.256-1.856-75.904-6.144-12.288 7.872-25.152 16.448-35.2 26.752-27.008 27.648-49.472 66.112-63.488 108.288 0.96 4.032 1.728 7.424 2.368 10.944 0 0 15.296 94.784 11.2 126.848-0.512 4.48-0.96 5.696-1.984 9.024l-1.28 3.776c-4.16 10.432-12.224 21.632-24.896 20.928l-7.488 0.32h-0.256c-14.080 0-25.728-7.936-28.672-19.84-9.28-37.312 0.384-93.184 17.472-165.44l-4.352-11.776c-12.288-33.024-27.904-66.304-41.472-95.616l-1.664-3.84c-14.464-30.784-27.456-56.96-39.232-79.168l-12.16-7.040c-0.96-0.512-21.824-12.736-26.688-16-41.6-27.328-69.12-58.24-73.728-82.816-1.408-7.744-0.32-17.728 7.040-22.4l11.776-6.592c5.12-2.816 10.496-4.288 16.064-4.288 29.568 0 63.872 40.576 111.232 131.264 54.464 19.648 116.864 35.84 171.264 44.8 41.6-25.728 92.608-43.584 124.864-43.584 5.888 0 10.624 0.576 14.72 1.728 6.272 1.856 11.392 5.696 14.656 10.944 6.208 10.496 7.616 24.704 5.888 39.296zM444.992 394.24c5.568 11.072 11.52 22.72 17.408 35.072 14.528 30.272 23.808 53.952 30.592 73.408 13.568-27.2 30.528-50.368 50.496-68.992 2.56-2.24 5.056-4.608 7.808-6.976-40.448-8.768-75.456-19.52-106.304-32.512z" />
<glyph unicode="&#xe68e;" glyph-name="font-size" d="M597.888 318.080l-62.784-190.080h-80.704l206.272 604.224h93.248l206.080-604.224h-83.392l-64.512 190.080h-214.208zM796.864 379.008l-60.032 173.952c-13.44 39.424-22.464 75.328-31.36 110.272h-1.792c-9.024-34.944-17.856-72.576-30.528-109.312l-59.136-174.912h182.848zM159.36 245.888l-38.912-117.888h-50.048l127.936 374.784h57.792l127.872-374.784h-51.712l-40.064 117.888h-132.864zM282.816 283.712l-37.248 107.84c-8.32 24.448-13.952 46.72-19.456 68.416h-1.088c-5.632-21.696-11.136-45.056-18.944-67.84l-36.672-108.416h113.408z" />
<glyph unicode="&#xe68f;" glyph-name="font-family" d="M448 640h-192v128h512v-128h-192v-512h-128v512z" />
<glyph unicode="&#xe690;" glyph-name="merge-horizontally" d="M64 896v-832h832v832h-832zM384 832h192v-192h-192v192zM128 832h192v-192h-192v192zM320 128h-192v192h192v-192zM576 128h-192v192h192v-192zM832 128h-192v192h192v-192zM832 384h-704v192h704v-192zM832 640h-192v192h192v-192z" />
<glyph unicode="&#xe691;" glyph-name="merge-vertically" d="M64 64h832v832h-832v-832zM128 384v192h192v-192h-192zM128 128v192h192v-192h-192zM832 320v-192h-192v192h192zM832 576v-192h-192v192h192zM832 832v-192h-192v192h192zM576 832v-704h-192v704h192zM320 832v-192h-192v192h192z" />
<glyph unicode="&#xe692;" glyph-name="text-wrap" d="M960 768v-64h-768v64h768zM704 448v-448h-640v448h640zM640 384h-512v-320h512v320zM576 320h-384v-64h384v64zM576 128v64h-384v-64h384zM128 832h576v64h-640v-320h640v64h-576v192z" />
<glyph unicode="&#xe693;" glyph-name="dollar" d="M491.008 51.648v78.72c-39.36 4.992-71.36 13.888-96 26.496-24.704 12.736-46.016 33.28-63.872 61.504-17.984 28.224-28.352 62.848-31.296 103.616l79.168 14.848c6.144-42.24 16.96-73.28 32.384-93.12 22.208-28.032 48.704-43.648 79.616-46.848v250.688c-32.384 6.144-65.536 18.688-99.328 37.632-25.024 14.016-44.416 33.472-57.92 58.176-13.632 24.832-20.416 52.928-20.416 84.48 0 56 19.84 101.376 59.52 136.064 26.56 23.36 65.92 37.632 118.144 42.88v37.568h46.4v-37.632c45.824-4.352 82.112-17.728 108.992-40.192 34.368-28.544 55.104-67.84 62.144-117.696l-81.408-12.288c-4.736 30.976-14.4 54.656-29.12 71.168-14.72 16.448-34.88 27.328-60.608 32.576v-227.072c39.744-9.856 65.984-17.6 78.72-23.168 24.512-10.752 44.48-23.872 60.032-39.36 15.36-15.424 27.264-33.792 35.648-55.104 8.256-21.248 12.48-44.288 12.48-69.12 0-54.528-17.344-100.032-52.096-136.512-34.624-36.352-79.616-56-134.72-58.624v-79.616h-46.464zM491.008 741.12c-30.656-4.608-54.784-16.896-72.384-36.736-17.664-19.84-26.496-43.328-26.496-70.464 0-26.816 7.488-49.28 22.528-67.392 15.040-18.048 40.448-32.448 76.352-43.264v217.856zM537.344 196.864c30.592 3.904 56 17.152 75.904 39.872 20.032 22.72 30.016 50.88 30.016 84.352 0 28.608-6.976 51.584-21.248 68.928-14.144 17.344-42.24 32.896-84.608 46.592v-239.744z" />
<glyph unicode="&#xe694;" glyph-name="percent" d="M455.872 585.28c0-131.52-68.16-196.8-148.8-196.8-78.656 0-144.96 62.4-145.856 187.2 0 124.8 67.2 194.88 151.616 194.88 86.4 0 143.040-67.2 143.040-185.28zM227.392 579.52c-1.856-79.68 28.8-140.16 81.6-140.16 55.68 0 80.64 59.52 80.64 141.12 0 76.8-22.080 139.2-81.536 139.2-51.904 0-80.704-62.4-80.704-140.16zM300.352 124.48l367.68 646.976h53.76l-367.68-646.976h-53.76zM862.784 326.080c0-131.52-68.096-196.8-148.736-196.8-78.72 0-144.896 62.464-145.856 188.16 0 124.8 67.136 194.88 151.616 194.88 86.4 0 142.976-67.2 142.976-186.24zM634.432 320.32c-1.984-79.68 28.736-140.16 81.472-140.16 55.744 0 80.768 59.584 80.768 142.144 0 75.84-22.144 139.2-81.6 139.2-51.904-0.064-80.64-62.464-80.64-141.184z" />
<glyph unicode="&#xe695;" glyph-name="freeze-col" d="M64 896v-832h832v832h-832zM320 832v-128l-128 128h128zM128 768l192-192v-128l-192 192v128zM128 512l192-192v-128l-192 192v128zM128 128v128l128-128h-128zM576 128h-192v192h192v-192zM576 384h-192v192h192v-192zM384 640v0 0 192h192v-192h-192zM832 128h-192v192h192v-192zM832 384h-192v192h192v-192zM832 640h-192v192h192v-192z" />
<glyph unicode="&#xe696;" glyph-name="freeze-row" d="M64 64h832v832h-832v-832zM128 768l128-128h-128v128zM320 832l192-192h-128l-192 192h128zM576 832l192-192h-128l-192 192h128zM832 704l-128 128h128v-128zM640 384v192h192v-192h-192zM384 384v192h192v-192h-192zM320 384h-192v192h192v-192zM640 128v192h192v-192h-192zM384 128v192h192v-192h-192zM128 128v192h192v-192h-192z" />
<glyph unicode="&#xe697;" glyph-name="freeze-panes" d="M64 896v-832h832v832h-832zM576 832l192-192h-128l-192 192h128zM320 832l192-192h-128l-192 192h128zM128 768l192-192v-128l-192 192v128zM128 512l192-192v-128l-192 192v128zM128 128v128l128-128h-128zM576 128h-192v192h192v-192zM576 384h-192v192h192v-192zM832 128h-192v192h192v-192zM832 384h-192v192h192v-192zM704 832h128v-128l-128 128z" />
<glyph unicode="&#xe698;" glyph-name="format-number" d="M225.28 192.128h-85.888v323.264c-31.296-29.312-68.224-50.944-110.72-65.024v77.824c22.336 7.296 46.656 21.248 72.96 41.664 26.176 20.48 44.224 44.352 53.952 71.616h69.696v-449.344zM611.904 271.872v-79.744h-300.736c3.264 30.144 12.992 58.624 29.312 85.632 16.256 27.008 48.384 62.72 96.448 107.328 38.656 35.968 62.336 60.352 71.104 73.216 11.84 17.728 17.728 35.2 17.728 52.48 0 19.136-5.12 33.792-15.424 44.096s-24.448 15.488-42.56 15.488c-17.92 0-32.128-5.376-42.752-16.192-10.56-10.816-16.704-28.736-18.368-53.76l-85.376 8.576c5.056 47.232 20.992 81.088 47.872 101.632s60.48 30.848 100.736 30.848c44.16 0 78.848-11.904 104.128-35.712 25.216-23.808 37.888-53.44 37.888-88.832 0-20.096-3.648-39.296-10.88-57.536s-18.688-37.312-34.368-57.28c-10.368-13.184-29.12-32.256-56.128-57.024s-44.16-41.344-51.392-49.472c-7.232-8.064-13.12-16-17.6-23.68h170.368zM698.112 310.848l83.008 10.048c2.624-21.184 9.728-37.376 21.376-48.576 11.648-11.136 25.6-16.704 42.112-16.704 17.728 0 32.64 6.656 44.736 20.032 12.032 13.504 18.112 31.488 18.112 54.4 0 21.504-5.76 38.656-17.344 51.264s-25.728 18.944-42.368 18.944c-11.008 0-24.128-2.176-39.488-6.4l9.472 69.888c23.232-0.64 40.896 4.416 53.12 15.104s18.368 24.896 18.368 42.624c0 15.040-4.48 27.008-13.504 36.032-9.024 8.96-20.864 13.44-35.648 13.44s-27.264-5.12-37.632-15.296c-10.368-10.176-16.64-25.024-18.88-44.608l-79.104 13.44c5.504 27.072 13.76 48.704 24.896 64.896 11.136 16.128 26.624 28.864 46.4 38.144 19.904 9.28 42.112 13.888 66.752 13.888 42.112 0 75.904-13.44 101.248-40.256 20.992-22.016 31.488-46.848 31.488-74.496 0-39.296-21.376-70.656-64.384-94.016 25.6-5.504 46.144-17.792 61.504-36.928 15.36-19.2 22.976-42.24 22.976-69.312 0-39.232-14.272-72.768-43.008-100.416-28.608-27.648-64.384-41.472-107.136-41.472-40.512 0-74.112 11.648-100.736 34.944s-42.048 53.76-46.336 91.392z" />
<glyph unicode="&#xe900;" glyph-name="reset-color" d="M754.752 774.848l-117.056-117.12c-76.288 101.632-157.696 174.272-157.696 174.272s-288-256-288-480c0-41.088 9.408-79.68 25.024-114.944l-127.744-127.808 45.248-45.248 665.472 665.6-45.248 45.248zM256 352c0 192 224 393.344 224 393.344s58.304-52.928 115.392-129.856l-329.088-329.216c-6.528 20.8-10.304 42.816-10.304 65.728zM704.448 556.416c36.928-65.728 63.552-136.512 63.552-204.416 0-158.976-129.024-288-288-288-74.368 0-141.504 28.992-192.64 75.264l45.248 45.248c39.424-34.752 90.624-56.512 147.392-56.512 123.776 0 224 100.224 224 224 0 54.272-18.176 109.12-43.904 160.128l44.352 44.288zM608 384c0-88.384-71.616-160-160-160v64c52.992 0 96 43.008 96 96h64z" />
<glyph unicode="&#xe901;" glyph-name="file-horizontal" d="M960 512v-384h-832v640h576l256-256zM192 192h704v320h-192v192h-512v-512z" />
<glyph unicode="&#xe902;" glyph-name="folder" d="M192 704v-64h640v-448h-704v576h384v64h-448v-704h832v576z" />
<glyph unicode="&#xe903;" glyph-name="folder-open" d="M301.696 640l-109.696-384h64l91.456 320h594.24l-109.696-384h-704v576h384v64h-448v-704h813.696l146.304 512z" />
<glyph unicode="&#xe904;" glyph-name="table-align-top-left" d="M64 0v960h896v-960h-896zM128 896v-832h768v832h-768zM192 768h384v64h-384v-64zM192 640h640v64h-640v-64zM192 512h384v64h-384v-64z" />
<glyph unicode="&#xe905;" glyph-name="table-align-top-center" d="M64 0v960h896v-960h-896zM128 896v-832h768v832h-768zM704 832h-384v-64h384v64zM832 704h-640v-64h640v64zM704 576h-384v-64h384v64z" />
<glyph unicode="&#xe906;" glyph-name="table-align-top-right" d="M64 0v960h896v-960h-896zM128 896v-832h768v832h-768zM832 832h-384v-64h384v64zM832 704h-640v-64h640v64zM832 576h-384v-64h384v64z" />
<glyph unicode="&#xe907;" glyph-name="table-align-middle-left" d="M64 0v960h896v-960h-896zM128 896v-832h768v832h-768zM192 576h384v64h-384v-64zM192 448h640v64h-640v-64zM192 320h384v64h-384v-64z" />
<glyph unicode="&#xe908;" glyph-name="table-align-middle-center" d="M64 0v960h896v-960h-896zM128 896v-832h768v832h-768zM704 640h-384v-64h384v64zM832 512h-640v-64h640v64zM704 384h-384v-64h384v64z" />
<glyph unicode="&#xe909;" glyph-name="table-align-middle-right" d="M64 0v960h896v-960h-896zM128 896v-832h768v832h-768zM832 640h-384v-64h384v64zM832 512h-640v-64h640v64zM832 384h-384v-64h384v64z" />
<glyph unicode="&#xe90a;" glyph-name="table-align-bottom-left" d="M64 0v960h896v-960h-896zM128 896v-832h768v832h-768zM192 384h384v64h-384v-64zM192 256h640v64h-640v-64zM192 128h384v64h-384v-64z" />
<glyph unicode="&#xe90b;" glyph-name="table-align-bottom-center" d="M64 0v960h896v-960h-896zM128 896v-832h768v832h-768zM704 448h-384v-64h384v64zM832 320h-640v-64h640v64zM704 192h-384v-64h384v64z" />
<glyph unicode="&#xe90c;" glyph-name="table-align-bottom-right" d="M64 0v960h896v-960h-896zM128 896v-832h768v832h-768zM832 448h-384v-64h384v64zM832 320h-640v-64h640v64zM832 192h-384v-64h384v64z" />
<glyph unicode="&#xe90d;" glyph-name="table-align-remove" d="M64 960v-960h896v960h-896zM896 64h-768v832h768v-832zM263.2 512l59.8-64h-67v64h7.2zM256 384h126.8l59.8-64h-186.6v64zM502.2 256l59.8-64h-306v64h246.2zM192 776l45.2 45.2 49.8-53.2h481v-64h-421.2l59.8-64h361.4v-64h-301.8l59.8-64h242v-64h-182.4l59.8-64h122.6v-64h-62.8l126.8-136-45.2-45.2-594.8 637.2z" />
<glyph unicode="&#xe90e;" glyph-name="full-screen" d="M0 896h320v-128h-192v-192h-128v320zM128 320h-128v-320h320v128h-192v192zM704 896v-128h192v-192h128v320h-320zM896 128h-192v-128h320v320h-128v-192z" />
<glyph unicode="&#xe90f;" glyph-name="full-screen-exit" d="M320 896h-128v-192h-192v-128h320v320zM192 0h128v320h-320v-128h192v-192zM1024 576v128h-192v192h-128v-320h320zM832 192h192v128h-320v-320h128v192z" />
<glyph unicode="&#xe910;" glyph-name="volume-down" d="M0 256h192l256-256v896l-256-256h-192v-384zM576 200v496c110.4-28.4 192-128.6 192-248s-81.6-219.6-192-248z" />
<glyph unicode="&#xe911;" glyph-name="volume-up" d="M0 256h192l256-256v896l-256-256h-192v-384zM576 200v496c110.4-28.4 192-128.6 192-248s-81.6-219.6-192-248zM576 960v-89.6c90.4 0 176.6-41.6 242.4-116.8 70.8-80.8 109.6-189.2 109.6-305.6s-38.8-224.8-109.6-305.6c-66-75.4-152-116.8-242.4-116.8v-89.6c247.4 0 448 229.2 448 512s-200.6 512-448 512z" />
<glyph unicode="&#xe912;" glyph-name="volume-off" d="M192 640l256 256v-896l-256 256h-192v384h192zM1024 581.4l-90.6 90.6-133.4-133.4-133.6 133.4-90.4-90.6 133.4-133.4-133.4-133.4 90.6-90.6 133.4 133.4 133.4-133.4 90.6 90.6-133.6 133.4 133.6 133.4z" />
<glyph unicode="&#xe913;" glyph-name="play" d="M0-64v1024l1024-512-1024-512z" />
<glyph unicode="&#xe914;" glyph-name="pause" d="M640 960h320v-1024h-320v1024zM64-64h320v1024h-320v-1024z" />
<glyph unicode="&#xe915;" glyph-name="stop" d="M1024-64h-1024v1024h1024v-1024z" />
<glyph unicode="&#xe916;" glyph-name="hd" d="M960 832h-896c-35.2 0-64-28.8-64-64v-640c0-35.2 28.8-64 64-64h896c35.2 0 64 28.8 64 64v640c0 35.2-28.8 64-64 64zM512 192h-128v192h-128v-192h-128v512h128v-192h128v192h128v-512zM932.6 329.8c-10.2-32.4-23.6-58.8-39.6-78.2-16.4-19.6-36.4-34.8-59.6-44.8-23-9.8-52.6-14.8-87.8-14.8h-169.6v512h165.2c40.6 0 70.8-4.4 92.2-13.6s41.2-24.4 59-45.6c17.4-21 31.4-48.2 41.2-81.2 9.6-32.4 14.6-73 14.6-120.6-0.2-43-5.4-81.2-15.6-113.2zM824.2 518.2c5.2-17 7.8-41 7.8-71.2 0-29-2.6-52.6-7.8-70.2-5-16.8-11-28.8-17.8-36-6.6-7-15-12-25.6-15.4-7.6-2.4-23.6-5.4-56.6-5.4h-52.2v256h25.8c42.8 0 61.2-1.8 69-3.4 13.8-2.8 25.2-8.2 35-16.8 9.8-9 17.4-21.6 22.4-37.6z" />
<glyph unicode="&#xe917;" glyph-name="subtitles" d="M960 832h-896c0 0-64 0-64-64v-640c0-64 64-64 64-64h896c64 0 64 64 64 64v640c0 0 0 64-64 64zM480 550.8c-12.2 8.2-27 14.8-43.8 19.4-17 4.6-34.2 7-51.6 7-36 0-64.4-11.6-85.2-34.8s-31.2-54.8-31.2-94.6c0-39.6 10.4-70.8 31.2-93.8s48.6-34.4 83.4-34.4c32.2 0 64.6 9.2 97.2 27.6v-133.2c-36.4-14.8-78.4-22-126.2-22-46.8 0-87.2 10-121.2 30.2s-59.8 48.8-77.8 86c-18 37.2-26.8 80-26.8 128.6 0 52.2 10 98.8 30 139.4 20 40.8 48.4 72.2 85 94.4s78.8 33.4 126.4 33.4c38 0 74.8-5.2 110.4-15.6v-137.6zM896 550.8c-12.2 8.2-27 14.8-43.8 19.4-17 4.6-34.2 7-51.6 7-36 0-64.4-11.6-85.2-34.8s-31.2-54.8-31.2-94.6c0-39.6 10.4-70.8 31.2-93.8s48.6-34.4 83.4-34.4c32.2 0 64.6 9.2 97.2 27.6v-133.2c-36.4-14.8-78.4-22-126.2-22-46.8 0-87.2 10-121.2 30.2s-59.8 48.8-77.8 86c-18 37.2-26.8 80-26.8 128.6 0 52.2 10 98.8 30 139.4 20 40.8 48.4 72.2 85 94.4s78.8 33.4 126.4 33.4c38 0 74.8-5.2 110.4-15.6v-137.6z" />
<glyph unicode="&#xe918;" glyph-name="playlist" d="M0 448h640v-128h-640v128zM1024 832h-1024v128h1024v-128zM768 702.4v-536c-26.8 16-60 25.6-96 25.6-88.4 0-160-57.4-160-128s71.6-128 160-128 160 57.4 160 128v510.4h192v129.6l-256-1.6zM0 704v-128h640v128h-640z" />
</font>
</defs>
</svg>
